Torrent Details

Photo Not Available
The Big Bang Theory S11E20 720p HDTV x264-AVS[rarbg]
Size632 MB in 3 files
ReleasesAdded on 01.01.1970 at 14:08 into the Television category by Unknown.
Status391 seeds & 23 peers.
Hashda0c24498f32d316cf6d37b8e8682f111afe3084
Rating
  • YourBT Visitors

Status This torrent has been verified.
*

Torrent Description

The.Big.Bang.Theory.S11E20.720p.HDTV.x264-AVS

Season 11, Episode 20 – “The Reclusive Potential”
A brilliant but reclusive scientist, Doctor Wolcott, invites Sheldon to his cabin in the middle of nowhere, and Leonard, Raj and Howard go along for the trip. Also, Penny and Bernadette improvise after Amy doesn’t like the tame bachelorette party they planned for her.

Video
ID : 1
Format : AVC
Format/Info : Advanced Video Codec
Format profile : [email protected]
Format settings : CABAC / 5 Ref Frames
Format settings, CABAC : Yes
Format settings, RefFrames : 5 frames
Codec ID : V_MPEG4/ISO/AVC
Duration : 20 min 40 s
Bit rate : 3 806 kb/s
Width : 1 280 pixels
Height : 718 pixels
Display aspect ratio : 16:9
Frame rate mode : Constant
Frame rate : 23.976 (24000/1001) FPS
Color space : YUV
Chroma subsampling : 4:2:0
Bit depth : 8 bits
Scan type : Progressive
Bits/(Pixel*Frame) : 0.173
Stream size : 563 MiB (89%)
Writing library : x264 core 155 r2901 7d0ff22
Encoding settings : cabac=1 / ref=5 / deblock=1:0:0 / analyse=0x3:0x113 / me=hex / subme=8 / psy=1 / psy_rd=1.00:0.00 / mixed_ref=1 / me_range=16 / chroma_me=1 / trellis=2 / 8x8dct=1 / cqm=0 / deadzone=21,11 / fast_pskip=1 / chroma_qp_offset=-2 / threads=22 / lookahead_threads=3 / sliced_threads=0 / nr=0 / decimate=1 / interlaced=0 / bluray_compat=0 / constrained_intra=0 / bframes=3 / b_pyramid=2 / b_adapt=1 / b_bias=0 / direct=3 / weightb=1 / open_gop=0 / weightp=2 / keyint=250 / keyint_min=23 / scenecut=40 / intra_refresh=0 / rc_lookahead=50 / rc=crf / mbtree=1 / crf=18.0 / qcomp=0.60 / qpmin=0 / qpmax=69 / qpstep=4 / ip_ratio=1.40 / aq=1:1.00
Default : Yes
Forced : No
Color range : Limited
Matrix coefficients : BT.709

Audio
ID : 2
Format : AC-3
Format/Info : Audio Coding 3
Format settings, Endianness : Big
Codec ID : A_AC3
Duration : 20 min 40 s
Bit rate mode : Constant
Bit rate : 384 kb/s
Channel(s) : 6 channels
Channel positions : Front: L C R, Side: L R, LFE
Sampling rate : 48.0 kHz
Frame rate : 31.250 FPS (1536 SPF)
Bit depth : 16 bits
Compression mode : Lossy
Stream size : 56.8 MiB (9%)
Service kind : Complete Main
Default : Yes
Forced : No



Similar Torrents

TORRENT NAMESIZESEEDSPEERS
632 MB60157
632 MB399
632 MB83
632 MB54
873 MB16522
181 MB315
168 MB2117147
555 MB1540336
555 MB1157119
168 MB73317
572 MB21911
168 MB1489
125 MB619
7 GB3510

Torrent Trackers

TRACKER URLSEEDSPEERS
Onlineudp://tracker.pirateparty.gr:6969/announce39120
Onlineudp://tracker.coppersurfer.tk:6969/announce38123
Onlineudp://tracker.opentrackr.org:1337/announce29416
Onlineudp://mgtracker.org:6969/announce484

Files inside this torrent

FILENAMESIZE
icon RARBG.txt30 B
icon The.Big.Bang.Theory.S11E20.720p.HDTV.x264-AVS.mkv632 MB
icon the.big.bang.theory.s11e20.720p.hdtv.x264-avs.nfo68 B